Sunday , 11 December 2016
Breaking News
[Close X]

Gangster King (Bengali Movie) 2CD HDTV Rip 1.4GB MKV

Gangster King (Bengali Movie) – 2CD –
HDTV Rip[Xvid – AC3(6Ch)]  

http://ultraimg.com/images/0cf417.jpghttp://ultraimg.com/images/22ba05.jpghttp://ultraimg.com/images/39e6fe.jpghttp://ultraimg.com/images/44a3b3.jpghttp://ultraimg.com/images/44a3b3.jpghttp://ultraimg.com/images/5e40ba.jpg

Code


General
Format                                   : AVI
Format/Info                              : Audio Video Interleave
File size                                : 1.40 GiB
Duration                                 : 2h 26mn
Overall bit rate                         : 1 365 Kbps
Video
Format                                   : MPEG-4 Visual
Format profile                           : Advanced Simple@L5
Format settings, Matrix                  : Default (H.263)
Codec ID                                 : XVID
Duration                                 : 2h 26mn
Bit rate                                 : 1 165 Kbps
Width                                    : 720 pixels
Height                                   : 304 pixels
Display aspect ratio                     : 2.35:1
Frame rate                               : 25.000 fps
Color space                              : YUV
Chroma subsampling                       : 4:2:0
Bit depth                                : 8 bits
Scan type                                : Progressive
Compression mode                         : Lossy
Bits/(Pixel*Frame)                       : 0.213
Stream size                              : 1.19 GiB (85%)Audio
ID                                       : 1
Format                                   : AC-3
Format/Info                              : Audio Coding 3
Mode extension                           : CM (complete main)
Format settings, Endianness              : Big
Codec ID                                 : 2000
Duration                                 : 2h 26mn
Bit rate mode                            : Constant
Bit rate                                 : 192 Kbps
Channel(s)                               : 6 channels
Channel positions                        : Front: L C R, Side: L R, LFE
Sampling rate                            : 48.0 KHz
Stream size                              : 201 MiB (14%)


Sample Downlaod Link

Thumbnail


Downlaod Link 1.4GB Link

BDuplaod Link

Indishare Link

Uptobox Link

Arabloads Link

Leave a Reply

Your email address will not be published. Required fields are marked *

*